<?xml version="1.0" standalone="no"?>
<!DOCTYPE svg PUBLIC "-//W3C//DTD SVG 1.1//EN" "http://www.w3.org/Graphics/SVG/1.1/DTD/svg11.dtd" >
<svg xmlns="http://www.w3.org/2000/svg" xmlns:xlink="http://www.w3.org/1999/xlink" version="1.1">
<metadata>
Created by FontForge 20190801 at Thu Nov  2 21:40:17 2017
 By www-data
Copyright (c) Datto, Inc. All rights reserved.
</metadata>
<defs>
<font id="DDIN" horiz-adv-x="610" >
  <font-face 
    font-family="DDIN"
    font-weight="400"
    font-stretch="normal"
    units-per-em="1000"
    panose-1="2 11 5 4 3 2 2 3 2 4"
    ascent="831"
    descent="-169"
    x-height="507"
    cap-height="690"
    bbox="-135 -168 1115 890"
    underline-thickness="50"
    underline-position="-150"
    unicode-range="U+000D-FB02"
  />
<missing-glyph horiz-adv-x="600" 
d="M101 690h397v-690h-397v690zM464 34v622h-329v-622h329z" />
    <glyph glyph-name="fi" unicode="fi" horiz-adv-x="561" 
d="M183 567v-60h106v-54h-106v-453h-69v453h-64v54h64v57q0 58 32.5 92t89.5 34h53v-54h-42q-64 0 -64 -69zM410 507h68v-507h-68v507zM408 680h72v-90h-72v90z" />
    <glyph glyph-name="fl" unicode="fl" horiz-adv-x="600" 
d="M183 567v-60h106v-54h-106v-453h-69v453h-64v54h64v57q0 58 32.5 92t89.5 34h53v-54h-42q-64 0 -64 -69zM434 34q-32 34 -32 99v557h68v-553q0 -39 15 -57t49 -18h41v-62h-48q-61 0 -93 34z" />
    <glyph glyph-name=".notdef" horiz-adv-x="600" 
d="M101 690h397v-690h-397v690zM464 34v622h-329v-622h329z" />
    <glyph glyph-name=".null" horiz-adv-x="0" 
 />
    <glyph glyph-name="nonmarkingreturn" unicode="&#xd;" horiz-adv-x="217" 
 />
    <glyph glyph-name="space" unicode=" " horiz-adv-x="217" 
 />
    <glyph glyph-name="exclam" unicode="!" horiz-adv-x="239" 
d="M78 690h84l-14 -494h-56zM75 93h89v-93h-89v93z" />
    <glyph glyph-name="quotedbl" unicode="&#x22;" horiz-adv-x="308" 
d="M53 690h66v-230h-66v230zM189 690h66v-230h-66v230z" />
    <glyph glyph-name="numbersign" unicode="#" horiz-adv-x="511" 
d="M392 430l-20 -153h90v-56h-97l-29 -221h-60l29 221h-138l-29 -221h-60l29 221h-82v56h90l20 153h-86v55h93l27 205h59l-27 -205h138l27 205h60l-27 -205h87v-55h-94zM332 430h-138l-20 -153h138z" />
    <glyph glyph-name="dollar" unicode="$" horiz-adv-x="457" 
d="M368.5 83q-42.5 -46 -117.5 -54v-88h-58v87q-72 8 -113 54t-47 127h69q5 -53 28 -81.5t63 -35.5v230l-7 1q-70 14 -106 52.5t-36 110.5q0 74 40.5 119.5t108.5 53.5v82h58v-81q65 -8 104.5 -50.5t46.5 -122.5h-69q-7 95 -82 110v-219l17 -3q70 -13 106.5 -54t36.5 -115
q0 -77 -42.5 -123zM133.5 424.5q19.5 -24.5 59.5 -34.5v206q-39 -7 -59 -34.5t-20 -70.5q0 -42 19.5 -66.5zM318.5 125q22.5 28 22.5 76t-21.5 73t-68.5 36v-219q45 6 67.5 34zM123 688z" />
    <glyph glyph-name="percent" unicode="%" horiz-adv-x="830" 
d="M71 304q-29 37 -29 111v139q0 71 30.5 107t90.5 36q63 0 92.5 -35.5t29.5 -107.5v-139q0 -74 -29.5 -111t-92.5 -37t-92 37zM570 690h63l-373 -690h-63zM205 346.5q11 21.5 11 71.5v130q0 48 -11.5 69t-41.5 21t-41.5 -21t-11.5 -69v-130q0 -50 11.5 -71.5t41.5 -21.5
q31 0 42 21.5zM574 31q-29 37 -29 111v139q0 71 30.5 107t90.5 36q63 0 92.5 -35.5t29.5 -107.5v-139q0 -74 -29.5 -111t-92.5 -37t-92 37zM708 73.5q11 21.5 11 71.5v130q0 48 -11.5 69t-41.5 21t-41.5 -21t-11.5 -69v-130q0 -50 11.5 -71.5t41.5 -21.5q31 0 42 21.5z" />
    <glyph glyph-name="ampersand" unicode="&#x26;" horiz-adv-x="597" 
d="M538 65v-65h-34q-27 0 -43 9.5t-34 35.5l-29 41q-40 -50 -81 -73t-91 -23q-79 0 -123 47.5t-44 125.5q0 56 32 107t100 112q-50 73 -67 106.5t-17 67.5q0 63 41 103.5t104 40.5t103 -40.5t40 -101.5q0 -47 -25.5 -87t-91.5 -98l124 -177l72 96l47 -41l-81 -109l35 -50
q19 -27 40 -27h23zM196.5 617.5q-21.5 -22.5 -21.5 -59.5q0 -23 12.5 -48t53.5 -84q53 47 70 74t17 59q0 36 -21 58.5t-55 22.5t-55.5 -22.5zM294 72.5q29 19.5 66 67.5l-132 190q-53 -47 -77 -85.5t-24 -78.5q0 -52 27.5 -82.5t75.5 -30.5q35 0 64 19.5z" />
    <glyph glyph-name="quotesingle" unicode="'" horiz-adv-x="172" 
d="M53 690h66v-230h-66v230z" />
    <glyph glyph-name="parenleft" unicode="(" horiz-adv-x="288" 
d="M59 328q0 218 119 412h51q-50 -98 -75.5 -203t-25.5 -209q0 -105 25.5 -210.5t75.5 -201.5h-52q-118 196 -118 412z" />
    <glyph glyph-name="parenright" unicode=")" horiz-adv-x="288" 
d="M135 118q26 106 26 210t-26 209t-76 203h51q119 -192 119 -412q0 -216 -118 -412h-52q50 96 76 202z" />
    <glyph glyph-name="asterisk" unicode="*" horiz-adv-x="377" 
d="M166 519l-86 -50l-21 36l88 51l-88 50l21 36l86 -50v98h45v-98l87 50l20 -36l-88 -50l88 -51l-20 -36l-87 50v-104h-45v104z" />
    <glyph glyph-name="plus" unicode="+" horiz-adv-x="512" 
d="M223 243h-166v66h166v166h66v-166h166v-66h-166v-166h-66v166z" />
    <glyph glyph-name="comma" unicode="," horiz-adv-x="172" 
d="M53 93h66v-168l-66 -62v230z" />
    <glyph glyph-name="hyphen" unicode="-" horiz-adv-x="393" 
d="M59 380h275v-66h-275v66z" />
    <glyph glyph-name="period" unicode="." horiz-adv-x="194" 
d="M53 92h88v-92h-88v92z" />
    <glyph glyph-name="slash" unicode="/" horiz-adv-x="392" 
d="M273 690h60l-214 -700h-60z" />
    <glyph glyph-name="zero" unicode="0" horiz-adv-x="493" 
d="M66 211v272q0 217 180 217q181 0 181 -217v-272q0 -221 -181 -221q-180 0 -180 221zM329 95q25 39 25 130v240q0 91 -25 130t-83 39t-82.5 -39t-24.5 -130v-240q0 -91 24.5 -130t82.5 -39t83 39z" />
    <glyph glyph-name="one" unicode="1" horiz-adv-x="329" 
d="M169 606l-119 -89v82l118 91h73v-690h-72v606z" />
    <glyph glyph-name="two" unicode="2" horiz-adv-x="468" 
d="M59 59l232 332q44 65 44 121v15q0 50 -28 79t-75 29t-74 -28.5t-27 -83.5v-18h-72v22q0 78 47.5 125.5t127.5 47.5q52 0 92 -22.5t61.5 -61.5t21.5 -87v-17q0 -42 -15 -80t-45 -79l-200 -288h260v-65h-350v59z" />
    <glyph glyph-name="three" unicode="3" horiz-adv-x="495" 
d="M110 34.5q-49 44.5 -49 120.5v16h73v-13q0 -48 29.5 -75.5t79.5 -27.5q53 0 83 32.5t30 87.5v26q0 57 -31.5 90.5t-86.5 33.5h-36v66h35q50 0 79 31.5t29 82.5v20q0 50 -28 80t-76 30t-75 -28t-27 -75v-16h-70v18q0 76 46.5 121t127.5 45q80 0 127 -46.5t47 -124.5v-22
q0 -50 -24 -87t-63 -55q48 -18 73.5 -60.5t25.5 -101.5v-24q0 -86 -51.5 -137.5t-135.5 -51.5q-83 0 -132 44.5z" />
    <glyph glyph-name="four" unicode="4" horiz-adv-x="499" 
d="M453 135h-75v-135h-73v135h-259v66l207 489h73l-207 -489h186v188h73v-188h75v-66z" />
    <glyph glyph-name="five" unicode="5" horiz-adv-x="484" 
d="M112.5 33q-46.5 43 -46.5 117v13h70v-7q0 -48 27 -74t77 -26q105 0 105 130v65q0 66 -25.5 98.5t-78.5 32.5q-37 0 -63 -18.5t-37 -51.5h-64v378h330v-67h-263v-220q18 20 46 32.5t61 12.5q83 0 125 -50t42 -143v-75q0 -90 -47 -140t-130 -50q-82 0 -128.5 43z" />
    <glyph glyph-name="six" unicode="6" horiz-adv-x="494" 
d="M110 42.5q-51 52.5 -51 141.5v34q0 37 10.5 72t30.5 75l161 325h76l-149 -303q12 9 32.5 15t42.5 6q77 0 124.5 -51t47.5 -137v-34q0 -61 -24.5 -105t-67 -67.5t-96.5 -23.5q-86 0 -137 52.5zM331 89.5q31 34.5 31 92.5v34q0 58 -31 92t-84 34q-52 0 -83 -33.5t-31 -91.5
v-34q0 -59 30.5 -93.5t83.5 -34.5t84 34.5z" />
    <glyph glyph-name="seven" unicode="7" horiz-adv-x="431" 
d="M391 690v-66l-225 -624h-73l228 624h-281v66h351z" />
    <glyph glyph-name="eight" unicode="8" horiz-adv-x="512" 
d="M157 13.5q-43 23.5 -67 66.5t-24 99v25q0 54 25.5 96.5t70.5 63.5q-38 19 -60 55.5t-22 86.5v20q0 49 22 88.5t62 62.5t92 23q53 0 93.5 -23t62 -62.5t21.5 -88.5v-20q0 -50 -22.5 -86.5t-60.5 -55.5q46 -22 71 -64.5t25 -94.5v-25q0 -57 -24.5 -100t-67.5 -66.5
t-99 -23.5q-55 0 -98 23.5zM331.5 426q28.5 31 28.5 80v21q0 47 -29 77.5t-75 30.5t-74.5 -30.5t-28.5 -77.5v-21q0 -49 28 -80t75 -31t75.5 31zM341 89.5q32 34.5 32 90.5v25q0 56 -31.5 90.5t-85.5 34.5q-53 0 -85 -35t-32 -90v-25q0 -55 32 -90t85 -35t85 34.5z" />
    <glyph glyph-name="nine" unicode="9" horiz-adv-x="494" 
d="M306 303q-12 -9 -32.5 -15t-42.5 -6q-77 0 -124.5 51.5t-47.5 136.5v34q0 61 24.5 105t67 67.5t96.5 23.5q86 0 137 -52.5t51 -141.5v-34q0 -37 -10.5 -71t-30.5 -76l-160 -325h-76zM330.5 381.5q30.5 33.5 30.5 91.5v34q0 59 -30.5 93.5t-83.5 34.5t-84 -34.5t-31 -92.5
v-34q0 -58 31 -92t84 -34t83.5 33.5z" />
    <glyph glyph-name="colon" unicode=":" horiz-adv-x="194" 
d="M53 92h88v-92h-88v92zM53 430h88v-92h-88v92z" />
    <glyph glyph-name="semicolon" unicode=";" horiz-adv-x="194" 
d="M53 430h88v-92h-88v92zM75 93h66v-168l-66 -62v230z" />
    <glyph glyph-name="less" unicode="&#x3c;" horiz-adv-x="512" 
d="M57 247v59l398 162v-71l-305 -121l305 -121v-71z" />
    <glyph glyph-name="equal" unicode="=" horiz-adv-x="512" 
d="M57 405h398v-67h-398v67zM57 213h398v-66h-398v66z" />
    <glyph glyph-name="greater" unicode="&#x3e;" horiz-adv-x="512" 
d="M57 155l305 121l-305 121v71l398 -162v-59l-398 -163v71z" />
    <glyph glyph-name="question" unicode="?" horiz-adv-x="429" 
d="M172 237q0 36 7 58.5t30 53.5l54 73q27 36 36.5 59.5t9.5 51.5q0 48 -26 74.5t-74 26.5q-97 0 -99 -109h-72q2 84 46 129.5t127 45.5q79 0 125 -46t46 -121q0 -36 -12 -66t-39 -68l-57 -80q-17 -24 -23 -41t-6 -42v-58h-73v59zM164 93h89v-93h-89v93z" />
    <glyph glyph-name="at" unicode="@" horiz-adv-x="872" 
d="M240 -80.5q-86 47.5 -133.5 133t-47.5 196.5v68q0 110 48 194.5t133.5 131.5t195.5 47q109 0 195 -47t134 -131.5t48 -192.5v-67q0 -98 -42 -147t-109 -49q-41 0 -71 18.5t-45 52.5q-15 -35 -47.5 -53t-80.5 -18q-77 0 -113 47.5t-36 133.5v80q0 87 36 134.5t111 47.5
q38 0 67 -14.5t45 -40.5v45h65v-289q0 -43 19.5 -65t50.5 -22q39 0 59 32t20 106v67q0 93 -37 162.5t-106.5 107.5t-162.5 38t-162.5 -38t-106.5 -107.5t-37 -161.5v-71q0 -92 37 -162.5t106 -109.5t163 -39q66 0 116 12.5t99 38.5l24 -57q-54 -31 -110.5 -45t-128.5 -14
q-110 0 -196 47.5zM525 237v82q0 122 -93 122q-94 0 -94 -125v-74q0 -62 22 -95t72 -33q93 0 93 123z" />
    <glyph glyph-name="A" unicode="A" horiz-adv-x="577" 
d="M435 166h-293l-58 -166h-77l251 690h61l251 -690h-77zM414 228l-126 360l-125 -360h251z" />
    <glyph glyph-name="B" unicode="B" horiz-adv-x="614" 
d="M518.5 294q29.5 -43 29.5 -105q0 -89 -56 -139t-153 -50h-259v690h253q97 0 150.5 -47.5t53.5 -134.5q0 -53 -28 -95t-78 -58q58 -18 87.5 -61zM153 625v-240h172q65 0 102 29.5t37 89.5t-36 90.5t-102 30.5h-173zM437 98q38 33 38 96q0 62 -37.5 94t-106.5 32h-178v-255
h177q69 0 107 33z" />
    <glyph glyph-name="C" unicode="C" 
d="M132 55.5q-66 63.5 -66 200.5v179q0 137 66 200.5t177 63.5q70 0 123.5 -26t82.5 -74t29 -111v-3h-73v3q0 67 -43.5 106t-118.5 39q-83 0 -126.5 -47t-43.5 -154v-180q0 -193 171 -193q75 0 118 38.5t43 105.5v4h71v-4q0 -97 -63 -154t-170 -57q-111 0 -177 63.5z" />
    <glyph glyph-name="D" unicode="D" horiz-adv-x="621" 
d="M80 690h236q110 0 174.5 -63.5t64.5 -200.5v-162q0 -137 -64.5 -200.5t-174.5 -63.5h-236v690zM317 66q164 0 164 194v163q0 105 -42.5 153t-121.5 48h-163v-558h163z" />
    <glyph glyph-name="E" unicode="E" horiz-adv-x="547" 
d="M153 624v-240h296v-66h-296v-252h346v-66h-419v690h419v-66h-346z" />
    <glyph glyph-name="F" unicode="F" horiz-adv-x="539" 
d="M153 624v-242h296v-66h-296v-316h-73v690h419v-66h-346z" />
    <glyph glyph-name="G" unicode="G" 
d="M131.5 55.5q-65.5 63.5 -65.5 200.5v179q0 137 65.5 200.5t175.5 63.5q71 0 124 -26t82 -73.5t29 -109.5v-4h-73v4q0 66 -43.5 104.5t-117.5 38.5q-83 0 -126 -47.5t-43 -153.5v-180q0 -193 170 -193q79 0 120.5 43t41.5 137v53h-165v63h238v-103q0 -136 -64 -198
t-173 -62q-110 0 -175.5 63.5z" />
    <glyph glyph-name="H" unicode="H" horiz-adv-x="629" 
d="M549 690v-690h-73v320h-323v-320h-73v690h73v-304h323v304h73z" />
    <glyph glyph-name="I" unicode="I" horiz-adv-x="249" 
d="M88 690h73v-690h-73v690z" />
    <glyph glyph-name="J" unicode="J" horiz-adv-x="313" 
d="M32 66h57q34 0 48.5 18t14.5 58v548h73v-557q0 -65 -32 -99t-93 -34h-68v66z" />
    <glyph glyph-name="K" unicode="K" horiz-adv-x="598" 
d="M294 364l-141 -174v-190h-73v690h73v-402l319 402h87l-218 -269l249 -421h-85z" />
    <glyph glyph-name="L" unicode="L" horiz-adv-x="529" 
d="M80 690h73v-624h344v-66h-417v690z" />
    <glyph glyph-name="M" unicode="M" horiz-adv-x="753" 
d="M673 690v-690h-73v540l-195 -402h-56l-196 402v-540h-73v690h73l224 -465l223 465h73z" />
    <glyph glyph-name="N" unicode="N" horiz-adv-x="663" 
d="M583 690v-690h-73l-357 556v-556h-73v690h73l357 -554v554h73z" />
    <glyph glyph-name="O" unicode="O" 
d="M130.5 55.5q-64.5 63.5 -64.5 200.5v179q0 137 65 200.5t175 63.5q109 0 173.5 -63.5t64.5 -200.5v-179q0 -137 -65 -200.5t-174 -63.5q-110 0 -174.5 63.5zM471 252v180q0 201 -165 201q-83 0 -125 -47.5t-42 -153.5v-180q0 -101 42.5 -147t124.5 -46q165 0 165 193z
" />
    <glyph glyph-name="P" unicode="P" horiz-adv-x="577" 
d="M487 636.5q58 -53.5 58 -152.5q0 -93 -58.5 -146t-158.5 -53h-175v-285h-73v690h248q101 0 159 -53.5zM433 384q39 33 39 100q0 71 -39 105.5t-111 34.5h-169v-273h169q72 0 111 33z" />
    <glyph glyph-name="Q" unicode="Q" 
d="M432 20l75 -139l-57 -32l-81 149q-30 -6 -64 -6q-110 0 -174.5 63.5t-64.5 200.5v179q0 137 65 200.5t175 63.5q109 0 173.5 -63.5t64.5 -200.5v-179q0 -177 -112 -236zM471 432q0 201 -165 201q-83 0 -125 -47.5t-42 -153.5v-180q0 -101 42.5 -147t124.5 -46
q165 0 165 193v180z" />
    <glyph glyph-name="R" unicode="R" horiz-adv-x="599" 
d="M319 303h-166v-303h-73v690h256q97 0 152.5 -50.5t55.5 -143.5q0 -74 -39 -122t-109 -64l163 -310h-84zM153 366h177q67 0 104 33.5t37 95.5q0 64 -36.5 96.5t-104.5 32.5h-177v-258z" />
    <glyph glyph-name="S" unicode="S" horiz-adv-x="546" 
d="M101 45q-59 51 -68 150h72q14 -137 164 -137q78 0 118.5 33t40.5 96q0 57 -32 86t-97 40l-78 13q-84 14 -129 57.5t-45 122.5q0 91 61 142t161 51q92 0 150.5 -47.5t69.5 -144.5h-72q-12 129 -149 129q-71 0 -110.5 -33.5t-39.5 -91.5q0 -51 30.5 -79.5t92.5 -39.5
l80 -14q87 -15 133 -60t46 -127q0 -94 -63 -145.5t-173 -51.5q-104 0 -163 51z" />
    <glyph glyph-name="T" unicode="T" horiz-adv-x="482" 
d="M474 624h-197v-624h-72v624h-197v66h466v-66z" />
    <glyph glyph-name="U" unicode="U" horiz-adv-x="635" 
d="M196 23q-54 29 -85 82t-31 120v465h74v-459q0 -79 44.5 -125.5t119.5 -46.5q74 0 119 46.5t45 125.5v459h73v-465q0 -68 -30.5 -120.5t-84.5 -81.5t-122 -29t-122 29z" />
    <glyph glyph-name="V" unicode="V" horiz-adv-x="523" 
d="M7 690h76l179 -572l178 572h76l-225 -690h-60z" />
    <glyph glyph-name="W" unicode="W" horiz-adv-x="796" 
d="M789 690l-173 -690h-65l-153 599l-149 -599h-65l-177 690h71l140 -572l135 572h93l140 -572l135 572h68z" />
    <glyph glyph-name="X" unicode="X" horiz-adv-x="566" 
d="M239 359l-213 331h88l169 -271l169 271h85l-211 -328l233 -362h-88l-190 301l-189 -301h-85z" />
    <glyph glyph-name="Y" unicode="Y" horiz-adv-x="499" 
d="M286 289v-289h-73v290l-206 400h79l163 -331l164 331h79z" />
    <glyph glyph-name="Z" unicode="Z" horiz-adv-x="516" 
d="M480 66v-66h-440v66l354 558h-341v66h424v-66l-354 -558h357z" />
    <glyph glyph-name="bracketleft" unicode="[" horiz-adv-x="295" 
d="M80 740h156v-66h-86v-692h86v-66h-156v824z" />
    <glyph glyph-name="backslash" unicode="\" horiz-adv-x="392" 
d="M59 690h60l214 -700h-60z" />
    <glyph glyph-name="bracketright" unicode="]" horiz-adv-x="295" 
d="M59 -18h86v692h-86v66h156v-824h-156v66z" />
    <glyph glyph-name="asciicircum" unicode="^" horiz-adv-x="512" 
d="M227 690h59l173 -405h-60l-143 341l-142 -341h-60z" />
    <glyph glyph-name="underscore" unicode="_" horiz-adv-x="457" 
d="M0 -54h457v-50h-457v50z" />
    <glyph glyph-name="grave" unicode="`" horiz-adv-x="500" 
d="M148 697h84l99 -125h-63z" />
    <glyph glyph-name="a" unicode="a" horiz-adv-x="497" 
d="M374.5 471q47.5 -43 47.5 -126v-345h-67v54q-23 -31 -57 -45.5t-83 -14.5q-80 0 -124 38t-44 111q0 68 44.5 106.5t125.5 38.5h137v58q0 55 -30 83t-85 28q-52 0 -81.5 -23.5t-29.5 -64.5v-3h-66v5q0 65 47 104t129 39q89 0 136.5 -43zM323.5 79.5q30.5 30.5 30.5 92.5
v66h-127q-112 0 -112 -94q0 -95 111 -95q67 0 97.5 30.5z" />
    <glyph glyph-name="b" unicode="b" horiz-adv-x="510" 
d="M143 67v-67h-68v690h68v-254q21 38 54.5 58t77.5 20q78 0 127 -50.5t49 -157.5v-104q0 -107 -48 -157.5t-123 -50.5q-95 0 -137 73zM383 206v96q0 150 -117 150q-61 0 -92 -42.5t-31 -113.5v-89q0 -67 32.5 -109.5t94.5 -42.5q113 0 113 151z" />
    <glyph glyph-name="c" unicode="c" horiz-adv-x="503" 
d="M112.5 43.5q-53.5 49.5 -53.5 158.5v104q0 108 53.5 158t143.5 50q87 0 137.5 -46t50.5 -123v-5h-66v5q0 51 -32 79t-87 28q-62 0 -97 -33.5t-35 -116.5v-96q0 -84 34.5 -117.5t96.5 -33.5q56 0 88 28t32 79v5h66v-4q0 -77 -51 -123t-136 -46q-91 0 -144.5 49.5z" />
    <glyph glyph-name="d" unicode="d" horiz-adv-x="511" 
d="M107 44.5q-48 50.5 -48 157.5v104q0 107 48 157.5t124 50.5q92 0 136 -78v254h69v-690h-69v67q-20 -36 -54.5 -54.5t-82.5 -18.5q-75 0 -123 50.5zM335 97q32 42 32 110v89q0 71 -31 113.5t-92 42.5q-116 0 -116 -150v-96q0 -151 112 -151q63 0 95 42z" />
    <glyph glyph-name="e" unicode="e" horiz-adv-x="503" 
d="M127 240v-30q0 -86 35 -120.5t97 -34.5q54 0 84.5 26t30.5 72v3h66v-5q0 -71 -49.5 -114t-136.5 -43q-89 0 -142 53t-53 165v88q0 109 53 161.5t140 52.5t139.5 -52.5t52.5 -161.5v-60h-317zM161 418.5q-34 -33.5 -34 -116.5v-11h249v18q0 79 -33 111t-91 32
q-57 0 -91 -33.5z" />
    <glyph glyph-name="f" unicode="f" horiz-adv-x="327" 
d="M183 567v-60h106v-54h-106v-453h-69v453h-64v54h64v57q0 58 32.5 92t89.5 34h53v-54h-42q-64 0 -64 -69z" />
    <glyph glyph-name="g" unicode="g" horiz-adv-x="511" 
d="M120.5 -122q-47.5 36 -52.5 97h68q5 -33 34.5 -53.5t77.5 -20.5q119 0 119 133v71q-20 -36 -54.5 -55t-82.5 -19q-75 0 -123 50.5t-48 158.5v70q0 107 48 157t124 50q93 0 136 -77v71h69v-471q0 -92 -49.5 -145t-138.5 -53q-80 0 -127.5 36zM335 135q32 42 32 110v55
q0 71 -31 113.5t-92 42.5q-116 0 -116 -151v-61q0 -151 112 -151q63 0 95 42z" />
    <glyph glyph-name="h" unicode="h" horiz-adv-x="522" 
d="M75 690h68v-245q46 68 136 68q79 0 123.5 -47t44.5 -133v-333h-68v323q0 63 -31 96t-86 33q-54 0 -86.5 -33.5t-32.5 -95.5v-323h-68v690z" />
    <glyph glyph-name="i" unicode="i" horiz-adv-x="234" 
d="M83 507h68v-507h-68v507zM81 680h72v-90h-72v90z" />
    <glyph glyph-name="j" unicode="j" horiz-adv-x="226" 
d="M72 690h72v-90h-72v90zM-30 -90h41q34 0 49 18t15 57v522h68v-526q0 -65 -32 -99t-93 -34h-48v62z" />
    <glyph glyph-name="k" unicode="k" horiz-adv-x="494" 
d="M238 263l-95 -112v-151h-68v690h68v-453l221 270h82l-163 -192l192 -315h-83z" />
    <glyph glyph-name="l" unicode="l" horiz-adv-x="273" 
d="M107 34q-32 34 -32 99v557h68v-553q0 -39 15 -57t49 -18h41v-62h-48q-61 0 -93 34z" />
    <glyph glyph-name="m" unicode="m" horiz-adv-x="825" 
d="M75 507h67v-62q22 33 57.5 50.5t79.5 17.5q52 0 89 -22t57 -63q50 85 154 85q81 0 126 -47.5t45 -132.5v-333h-68v323q0 63 -30.5 96t-85.5 33q-56 0 -87.5 -33.5t-31.5 -92.5v-326h-69v323q0 63 -30.5 96t-85.5 33q-54 0 -86.5 -33.5t-32.5 -95.5v-323h-68v507z" />
    <glyph glyph-name="n" unicode="n" horiz-adv-x="522" 
d="M75 507h67v-62q22 34 57.5 51t79.5 17q81 0 124.5 -47.5t43.5 -132.5v-333h-68v323q0 63 -31 96t-86 33q-54 0 -86.5 -33.5t-32.5 -95.5v-323h-68v507z" />
    <glyph glyph-name="o" unicode="o" horiz-adv-x="505" 
d="M112 43.5q-53 49.5 -53 158.5v104q0 108 53 158t142 50q87 0 139.5 -50t52.5 -158v-104q0 -108 -52.5 -158t-139.5 -50q-89 0 -142 49.5zM344.5 88.5q33.5 33.5 33.5 117.5v96q0 83 -33.5 116.5t-90.5 33.5q-59 0 -93 -33.5t-34 -116.5v-96q0 -84 34 -117.5t93 -33.5
q57 0 90.5 33.5z" />
    <glyph glyph-name="p" unicode="p" horiz-adv-x="510" 
d="M75 507h68v-71q20 38 54 57.5t78 19.5q78 0 127 -50t49 -157v-104q0 -108 -48 -158t-123 -50q-95 0 -137 73v-219h-68v659zM383 206v95q0 151 -117 151q-61 0 -92 -42.5t-31 -113.5v-89q0 -67 32.5 -109.5t94.5 -42.5q113 0 113 151z" />
    <glyph glyph-name="q" unicode="q" horiz-adv-x="511" 
d="M367 67q-42 -73 -137 -73q-75 0 -123 50t-48 158v104q0 107 49 157t127 50q44 0 78 -19.5t54 -57.5v71h69v-659h-69v219zM335 97q32 42 32 110v89q0 71 -31 113.5t-92 42.5q-116 0 -116 -151v-95q0 -151 112 -151q63 0 95 42z" />
    <glyph glyph-name="r" unicode="r" horiz-adv-x="337" 
d="M75 507h67v-68q21 38 55.5 56.5t77.5 18.5q19 0 37 -3v-68q-24 8 -52 8q-52 0 -84.5 -36t-32.5 -94v-321h-68v507z" />
    <glyph glyph-name="s" unicode="s" horiz-adv-x="462" 
d="M97 34q-50 40 -50 108v4h66v-3q0 -42 32.5 -66.5t87.5 -24.5q57 0 89.5 23t32.5 66q0 38 -22.5 56t-72.5 27l-63 11q-74 13 -108 44t-34 90q0 66 49 105.5t127 39.5q84 0 134 -38.5t50 -100.5v-6h-66v3q0 40 -31 63t-85 23q-53 0 -82.5 -23t-29.5 -63q0 -33 21 -51.5
t67 -26.5l66 -12q75 -14 110.5 -45.5t35.5 -91.5q0 -72 -52 -111.5t-139 -39.5q-83 0 -133 40z" />
    <glyph glyph-name="t" unicode="t" horiz-adv-x="340" 
d="M182 453v-324q0 -69 65 -69h40v-60h-51q-58 0 -90.5 33.5t-32.5 92.5v327h-79v54h79v116l69 32v-148h114v-54h-114z" />
    <glyph glyph-name="u" unicode="u" horiz-adv-x="522" 
d="M121.5 43.5q-46.5 49.5 -46.5 142.5v321h68v-312q0 -70 27 -105t91 -35t91 34t27 106v312h68v-321q0 -93 -46.5 -142.5t-140.5 -49.5q-92 0 -138.5 49.5z" />
    <glyph glyph-name="v" unicode="v" horiz-adv-x="439" 
d="M14 507h74l132 -407l132 407h73l-175 -507h-61z" />
    <glyph glyph-name="w" unicode="w" horiz-adv-x="714" 
d="M14 507h74l114 -406l126 406h57l126 -406l115 406h74l-154 -507h-62l-128 409l-127 -409h-61z" />
    <glyph glyph-name="x" unicode="x" horiz-adv-x="421" 
d="M334 0l-124 203l-123 -203h-73l160 261l-150 246h73l115 -188l112 188h73l-152 -242l162 -265h-73z" />
    <glyph glyph-name="y" unicode="y" horiz-adv-x="439" 
d="M425 507l-195 -562q-18 -51 -49.5 -74t-83.5 -23h-30v62h25q37 0 55.5 15t30.5 49l10 31l-174 502h74l133 -403l133 403h71z" />
    <glyph glyph-name="z" unicode="z" horiz-adv-x="456" 
d="M397 444l-262 -381h262v-63h-338v63l260 381h-260v63h338v-63z" />
    <glyph glyph-name="braceleft" unicode="{" horiz-adv-x="340" 
d="M154.5 -57q-25.5 27 -25.5 83v191q0 43 -16 61.5t-54 19.5v65q38 1 54 19.5t16 61.5v186q0 56 25.5 83t76.5 27h50v-61h-35q-24 0 -35 -12t-11 -39v-179q0 -56 -13.5 -81.5t-46.5 -37.5q34 -12 47 -37.5t13 -80.5v-184q0 -27 11 -39t35 -12h35v-61h-50q-51 0 -76.5 27z
" />
    <glyph glyph-name="bar" unicode="|" horiz-adv-x="303" 
d="M118 740h67v-823h-67v823z" />
    <glyph glyph-name="braceright" unicode="}" horiz-adv-x="340" 
d="M59 -23h35q24 0 35 12t11 39v184q0 55 13 80.5t47 37.5q-33 12 -46.5 37.5t-13.5 81.5v179q0 27 -11 39t-35 12h-35v61h50q51 0 76.5 -27t25.5 -83v-186q0 -43 16 -61.5t54 -19.5v-65q-38 -1 -54 -19.5t-16 -61.5v-191q0 -56 -25.5 -83t-76.5 -27h-50v61z" />
    <glyph glyph-name="asciitilde" unicode="~" horiz-adv-x="512" 
d="M290 221q-21 9 -47 26q-23 15 -38 22t-32 7q-24 0 -40.5 -13t-36.5 -47l-49 30q21 46 54 69.5t73 23.5q25 0 45 -9t48 -26q24 -14 38.5 -21t31.5 -7q24 0 41.5 13.5t36.5 46.5l49 -31q-22 -45 -55 -69t-73 -24q-25 0 -46 9z" />
    <glyph glyph-name="uni00A0" unicode="&#xa0;" horiz-adv-x="217" 
 />
    <glyph glyph-name="exclamdown" unicode="&#xa1;" horiz-adv-x="239" 
d="M75 507h90v-94h-90v94zM92 311h56l14 -463h-84z" />
    <glyph glyph-name="cent" unicode="&#xa2;" horiz-adv-x="503" 
d="M378 340v5q0 47 -27 74.5t-76 31.5v-395q48 4 75.5 31.5t27.5 74.5v5h66v-4q0 -73 -45.5 -118.5t-123.5 -49.5v-95h-58v97q-73 10 -115.5 59.5t-42.5 145.5v104q0 96 42 146t116 60v95h58v-94q78 -4 123.5 -49.5t45.5 -118.5v-5h-66zM150.5 102.5q23.5 -34.5 66.5 -43.5
v389q-43 -10 -66.5 -44t-23.5 -102v-96q0 -69 23.5 -103.5z" />
    <glyph glyph-name="sterling" unicode="&#xa3;" horiz-adv-x="436" 
d="M403 68v-68h-349v62q24 15 34.5 39t10.5 64v125h-66v66h66v172q0 81 40.5 126.5t111.5 45.5q67 0 107.5 -40.5t40.5 -111.5h-72q0 39 -20.5 61.5t-56.5 22.5q-37 0 -57 -23.5t-20 -69.5v-183h139v-66h-139v-116q0 -36 -8 -61.5t-25 -44.5h263z" />
    <glyph glyph-name="currency" unicode="&#xa4;" horiz-adv-x="613" 
d="M420 166q-50 -36 -114 -36q-65 0 -115 36l-70 -70l-46 48l69 69q-35 51 -35 114q0 65 36 114l-70 71l46 47l71 -70q49 35 114 35q64 0 113 -35l71 70l47 -47l-70 -70q36 -52 36 -115q0 -64 -36 -114l71 -70l-47 -48zM401 230q38 39 38 97t-38 97t-95 39t-95 -39t-38 -97
t38 -97t95 -39t95 39z" />
    <glyph glyph-name="yen" unicode="&#xa5;" horiz-adv-x="454" 
d="M191 155h-142v56h142v67h-142v57h123l-162 355h82l136 -325l135 325h81l-161 -355h122v-57h-141v-67h141v-56h-141v-155h-73v155z" />
    <glyph glyph-name="brokenbar" unicode="&#xa6;" horiz-adv-x="303" 
d="M118 740h67v-352h-67v352zM118 271h67v-354h-67v354z" />
    <glyph glyph-name="section" unicode="&#xa7;" horiz-adv-x="511" 
d="M134 -126.5q-41 41.5 -41 122.5h69q0 -52 23 -76t68 -24q43 0 66.5 23t23.5 65q0 46 -28 71t-97 41q-71 16 -104.5 61t-33.5 118q0 58 25.5 100.5t74.5 59.5q-42 21 -60 52t-18 79q0 65 43 106.5t113 41.5q78 0 116.5 -42t38.5 -115h-69q0 93 -85 93q-40 0 -62.5 -22
t-22.5 -62q0 -45 26.5 -70t93.5 -41q71 -16 104 -61t33 -119q0 -57 -25.5 -100t-71.5 -58q42 -19 61.5 -51.5t19.5 -83.5q0 -68 -44.5 -109t-116.5 -41q-79 0 -120 41.5zM331.5 189.5q27.5 30.5 27.5 85.5q0 56 -27 86.5t-76 30.5t-76.5 -30.5t-27.5 -86.5q0 -55 28 -85.5
t76 -30.5t75.5 30.5zM237 707z" />
    <glyph glyph-name="dieresis" unicode="&#xa8;" horiz-adv-x="500" 
d="M126 664h76v-86h-76v86zM297 664h76v-86h-76v86z" />
    <glyph glyph-name="copyright" unicode="&#xa9;" horiz-adv-x="821" 
d="M231 34.5q-78 44.5 -121.5 124t-43.5 181.5t43.5 181.5t121.5 124t179 44.5t179.5 -44.5t122 -124t43.5 -181.5t-43.5 -182t-122 -124t-179.5 -44t-179 44.5zM561.5 80q65.5 37 101 104t35.5 156t-35.5 156t-101 104t-151.5 37t-151 -37t-100.5 -104t-35.5 -156
t35.5 -156t100.5 -104t151 -37t151.5 37zM306 185q-40 37 -40 119v77q0 82 40 119t108 37q65 0 102.5 -34t37.5 -92v-5h-52v3q0 38 -23 58.5t-63 20.5q-46 0 -71 -24.5t-25 -85.5v-71q0 -62 25 -86.5t71 -24.5q40 0 63 21t23 58v4h52v-5q0 -58 -38 -92t-102 -34
q-68 0 -108 37z" />
    <glyph glyph-name="ordfeminine" unicode="&#xaa;" horiz-adv-x="330" 
d="M246 721q31 -27 31 -80v-211h-62v31q-14 -18 -32.5 -26.5t-45.5 -8.5q-49 0 -75.5 25.5t-26.5 71.5q0 42 28.5 66t77.5 24h72v31q0 27 -14.5 41t-41.5 14q-26 0 -40 -12t-14 -33v-2h-60v2q0 43 30.5 68.5t83.5 25.5q58 0 89 -27zM198 494q15 15 15 46v28h-62
q-54 0 -54 -44q0 -45 53 -45q33 0 48 15zM165 847z" />
    <glyph glyph-name="guillemotleft" unicode="&#xab;" horiz-adv-x="478" 
d="M25 264l195 198v-83l-113 -115l113 -115v-83zM208 264l195 198v-83l-113 -115l113 -115v-83z" />
    <glyph glyph-name="logicalnot" unicode="&#xac;" horiz-adv-x="512" 
d="M387 264h-331v62h400v-196h-69v134z" />
    <glyph glyph-name="uni00AD" unicode="&#xad;" horiz-adv-x="393" 
d="M59 380h275v-66h-275v66z" />
    <glyph glyph-name="registered" unicode="&#xae;" horiz-adv-x="537" 
d="M172 331q-43 25 -67.5 69t-24.5 98t24.5 97.5t67.5 68.5t96 25q54 0 97 -25t67.5 -68.5t24.5 -97.5q0 -55 -24.5 -98.5t-67.5 -68.5t-97 -25q-53 0 -96 25zM380 382.5q44 45.5 44 115.5q0 46 -20 82.5t-56 57t-80 20.5q-67 0 -110.5 -45t-43.5 -115q0 -71 43.5 -116
t110.5 -45q68 0 112 45.5zM198 606h82q33 0 51.5 -16.5t18.5 -46.5q0 -22 -10 -37t-29 -22l44 -92h-39l-42 88h-40v-88h-36v214zM279 512q36 0 36 31t-36 31h-45v-62h45z" />
    <glyph glyph-name="macron" unicode="&#xaf;" horiz-adv-x="500" 
d="M120 652h260v-62h-260v62z" />
    <glyph glyph-name="degree" unicode="&#xb0;" horiz-adv-x="411" 
d="M105.5 460q-39.5 40 -39.5 100t39.5 100t100.5 40q59 0 99 -40t40 -100t-40 -100t-99 -40q-61 0 -100.5 40zM269 495q25 26 25 65q0 40 -25 66t-63 26q-39 0 -64 -26t-25 -66q0 -39 25 -65t64 -26q38 0 63 26z" />
    <glyph glyph-name="plusminus" unicode="&#xb1;" horiz-adv-x="512" 
d="M223 279h-166v66h166v166h66v-166h166v-66h-166v-166h-66v166zM57 62h398v-66h-398v66z" />
    <glyph glyph-name="uni00B2" unicode="&#xb2;" horiz-adv-x="321" 
d="M45 482l139 188q13 18 19 33t6 32v8q0 26 -13.5 40.5t-36.5 14.5q-24 0 -37.5 -15t-13.5 -45v-11h-66v15q0 51 32.5 81.5t86.5 30.5q53 0 85 -30t32 -78v-11q0 -27 -9.5 -50t-29.5 -49l-107 -147h147v-59h-234v52z" />
    <glyph glyph-name="uni00B3" unicode="&#xb3;" horiz-adv-x="319" 
d="M70 452.5q-31 28.5 -31 78.5v11h60v-10q0 -24 15 -38.5t41 -14.5q27 0 42 16.5t15 45.5v13q0 29 -16.5 46.5t-44.5 17.5h-21v56h21q25 0 39.5 15.5t14.5 41.5v10q0 27 -13.5 42t-37.5 15q-25 0 -38.5 -14t-13.5 -38v-10h-61v11q0 49 31 78t84 29t84 -29.5t31 -77.5v-10
q0 -30 -14 -52t-37 -34q27 -11 42 -37t15 -61v-12q0 -52 -33.5 -84.5t-87.5 -32.5q-55 0 -86 28.5z" />
    <glyph glyph-name="acute" unicode="&#xb4;" horiz-adv-x="500" 
d="M268 697h84l-120 -125h-63z" />
    <glyph glyph-name="uni00B5" unicode="&#xb5;" horiz-adv-x="515" 
d="M75 507h68v-329q0 -61 30 -92.5t82 -31.5q50 0 83 32.5t33 91.5v329h69v-507h-68v60q-21 -34 -54 -51t-75 -17q-64 0 -100 39v-183h-68v659z" />
    <glyph glyph-name="paragraph" unicode="&#xb6;" horiz-adv-x="613" 
d="M268 272q-85 6 -136.5 64t-51.5 145q0 59 25.5 106.5t74.5 75t117 27.5h196v-842h-67v777h-91v-777h-67v424z" />
    <glyph glyph-name="periodcentered" unicode="&#xb7;" horiz-adv-x="194" 
d="M53 315h88v-92h-88v92z" />
    <glyph glyph-name="cedilla" unicode="&#xb8;" horiz-adv-x="500" 
d="M251 12h61l-53 -162h-71z" />
    <glyph glyph-name="uni00B9" unicode="&#xb9;" horiz-adv-x="222" 
d="M99 774l-73 -55v74l73 54h69v-417h-69v344z" />
    <glyph glyph-name="ordmasculine" unicode="&#xba;" horiz-adv-x="330" 
d="M74 458q-33 32 -33 99v60q0 67 33 99t91 32t91 -32t33 -99v-60q0 -67 -33 -99t-91 -32t-91 32zM225 557v60q0 73 -60 73t-60 -73v-60q0 -73 60 -73t60 73zM165 847z" />
    <glyph glyph-name="guillemotright" unicode="&#xbb;" horiz-adv-x="478" 
d="M75 149l113 115l-113 115v83l195 -198l-195 -198v83zM257 149l114 115l-114 115v83l196 -198l-196 -198v83z" />
    <glyph glyph-name="onequarter" unicode="&#xbc;" horiz-adv-x="730" 
d="M99 617l-73 -55v74l73 54h69v-417h-69v344zM699 75h-39v-75h-69v75h-157v59l117 283h68l-116 -283h88v98h69v-98h39v-59zM465 690h63l-373 -690h-63z" />
    <glyph glyph-name="onehalf" unicode="&#xbd;" horiz-adv-x="719" 
d="M99 617l-73 -55v74l73 54h69v-417h-69v344zM443 52l139 188q13 18 19 33t6 32v8q0 26 -13.5 40.5t-36.5 14.5q-24 0 -37.5 -15t-13.5 -45v-11h-66v15q0 51 32.5 81.5t86.5 30.5q53 0 85 -30t32 -78v-11q0 -27 -9.5 -50t-29.5 -49l-107 -147h147v-59h-234v52zM465 690h63
l-373 -690h-63z" />
    <glyph glyph-name="threequarters" unicode="&#xbe;" horiz-adv-x="827" 
d="M70 295.5q-31 28.5 -31 78.5v11h60v-10q0 -24 15 -38.5t41 -14.5q27 0 42 16.5t15 45.5v13q0 29 -16.5 46.5t-44.5 17.5h-21v56h21q25 0 39.5 15.5t14.5 41.5v10q0 27 -13.5 42t-37.5 15q-25 0 -38.5 -14t-13.5 -38v-10h-61v11q0 49 31 78t84 29t84 -29.5t31 -77.5v-10
q0 -30 -14 -52t-37 -34q27 -11 42 -37t15 -61v-12q0 -52 -33.5 -84.5t-87.5 -32.5q-55 0 -86 28.5zM796 75h-39v-75h-69v75h-157v59l117 283h68l-116 -283h88v98h69v-98h39v-59zM562 690h63l-373 -690h-63z" />
    <glyph glyph-name="questiondown" unicode="&#xbf;" horiz-adv-x="429" 
d="M177 507h89v-93h-89v93zM93.5 -116q-46.5 46 -46.5 121q0 37 12.5 67.5t44.5 71.5l47 60q21 26 27 44t6 49v35h73v-36q0 -39 -8.5 -63.5t-35.5 -58.5l-47 -58q-27 -33 -36.5 -57t-9.5 -54q0 -47 26.5 -74t74.5 -27q96 0 98 109h73q-2 -85 -46 -130t-127 -45
q-79 0 -125.5 46z" />
    <glyph glyph-name="Agrave" unicode="&#xc0;" horiz-adv-x="577" 
d="M435 166h-293l-58 -166h-77l251 690h61l251 -690h-77zM414 228l-126 360l-125 -360h251zM163 880h84l99 -125h-63z" />
    <glyph glyph-name="Aacute" unicode="&#xc1;" horiz-adv-x="577" 
d="M435 166h-293l-58 -166h-77l251 690h61l251 -690h-77zM414 228l-126 360l-125 -360h251zM313 880h84l-120 -125h-63z" />
    <glyph glyph-name="Acircumflex" unicode="&#xc2;" horiz-adv-x="577" 
d="M435 166h-293l-58 -166h-77l251 690h61l251 -690h-77zM414 228l-126 360l-125 -360h251zM261 889h55l107 -144h-62l-72 95l-73 -95h-62z" />
    <glyph glyph-name="Atilde" unicode="&#xc3;" horiz-adv-x="577" 
d="M435 166h-293l-58 -166h-77l251 690h61l251 -690h-77zM414 228l-126 360l-125 -360h251zM165 813q17 20 33 29t36 9q16 0 29 -5t31 -15q15 -9 26.5 -14t25.5 -5q18 0 31.5 8.5t34.5 30.5v-61q-32 -37 -69 -37q-17 0 -30 5t-32 16q-3 2 -13 7t-19 7.5t-17 2.5
q-19 0 -33 -8.5t-34 -30.5v61z" />
    <glyph glyph-name="Adieresis" unicode="&#xc4;" horiz-adv-x="577" 
d="M435 166h-293l-58 -166h-77l251 690h61l251 -690h-77zM414 228l-126 360l-125 -360h251zM165 847h76v-86h-76v86zM336 847h76v-86h-76v86z" />
    <glyph glyph-name="Aring" unicode="&#xc5;" horiz-adv-x="577" 
d="M435 166h-293l-58 -166h-77l251 689q-27 9 -43.5 32.5t-16.5 53.5q0 40 25.5 66t65.5 26q39 0 65 -26t26 -66q0 -30 -17 -53.5t-44 -32.5l251 -689h-77zM252 737q15 -15 37 -15t37 15t15 38t-15 38.5t-37 15.5t-37 -15.5t-15 -38.5t15 -38zM414 228l-126 360l-125 -360
h251zM295 690z" />
    <glyph glyph-name="AE" unicode="&#xc6;" horiz-adv-x="866" 
d="M498 624v-240h269v-66h-269v-252h320v-66h-393v171h-247l-92 -171h-79l375 690h436v-66h-320zM425 233v394l-213 -394h213z" />
    <glyph glyph-name="Ccedilla" unicode="&#xc7;" 
d="M471 485v3q0 67 -43.5 106t-118.5 39q-83 0 -126.5 -47t-43.5 -154v-180q0 -193 171 -193q75 0 118 38.5t43 105.5v4h71v-4q0 -84 -48 -138.5t-132 -68.5l-48 -146h-71l55 142q-106 3 -169 66.5t-63 197.5v179q0 137 66 200.5t177 63.5q70 0 123.5 -26t82.5 -74t29 -111
v-3h-73z" />
    <glyph glyph-name="Egrave" unicode="&#xc8;" horiz-adv-x="547" 
d="M153 624v-240h296v-66h-296v-252h346v-66h-419v690h419v-66h-346zM154 880h84l99 -125h-63z" />
    <glyph glyph-name="Eacute" unicode="&#xc9;" horiz-adv-x="547" 
d="M153 624v-240h296v-66h-296v-252h346v-66h-419v690h419v-66h-346zM304 880h84l-120 -125h-63z" />
    <glyph glyph-name="Ecircumflex" unicode="&#xca;" horiz-adv-x="547" 
d="M153 624v-240h296v-66h-296v-252h346v-66h-419v690h419v-66h-346zM252 889h55l107 -144h-62l-72 95l-73 -95h-62z" />
    <glyph glyph-name="Edieresis" unicode="&#xcb;" horiz-adv-x="547" 
d="M153 624v-240h296v-66h-296v-252h346v-66h-419v690h419v-66h-346zM156 847h76v-86h-76v86zM327 847h76v-86h-76v86z" />
    <glyph glyph-name="Igrave" unicode="&#xcc;" horiz-adv-x="249" 
d="M88 690h73v-690h-73v690zM-1 880h84l99 -125h-63z" />
    <glyph glyph-name="Iacute" unicode="&#xcd;" horiz-adv-x="249" 
d="M88 690h73v-690h-73v690zM149 880h84l-120 -125h-63z" />
    <glyph glyph-name="Icircumflex" unicode="&#xce;" horiz-adv-x="249" 
d="M88 690h73v-690h-73v690zM97 889h55l107 -144h-62l-72 95l-73 -95h-62z" />
    <glyph glyph-name="Idieresis" unicode="&#xcf;" horiz-adv-x="249" 
d="M88 690h73v-690h-73v690zM1 847h76v-86h-76v86zM172 847h76v-86h-76v86z" />
    <glyph glyph-name="Eth" unicode="&#xd0;" horiz-adv-x="669" 
d="M538.5 626.5q64.5 -63.5 64.5 -200.5v-162q0 -137 -64.5 -200.5t-174.5 -63.5h-236v316h-90v66h90v308h236q110 0 174.5 -63.5zM529 423q0 105 -42.5 153t-121.5 48h-163v-242h140v-66h-140v-250h163q164 0 164 194v163z" />
    <glyph glyph-name="Ntilde" unicode="&#xd1;" horiz-adv-x="663" 
d="M583 690v-690h-73l-357 556v-556h-73v690h73l357 -554v554h73zM207 813q17 20 33 29t36 9q16 0 29 -5t31 -15q15 -9 26.5 -14t25.5 -5q18 0 31.5 8.5t34.5 30.5v-61q-32 -37 -69 -37q-17 0 -30 5t-32 16q-3 2 -13 7t-19 7.5t-17 2.5q-19 0 -33 -8.5t-34 -30.5v61z" />
    <glyph glyph-name="Ograve" unicode="&#xd2;" 
d="M130.5 55.5q-64.5 63.5 -64.5 200.5v179q0 137 65 200.5t175 63.5q109 0 173.5 -63.5t64.5 -200.5v-179q0 -137 -65 -200.5t-174 -63.5q-110 0 -174.5 63.5zM471 252v180q0 201 -165 201q-83 0 -125 -47.5t-42 -153.5v-180q0 -101 42.5 -147t124.5 -46q165 0 165 193z
M179 880h84l99 -125h-63z" />
    <glyph glyph-name="Oacute" unicode="&#xd3;" 
d="M130.5 55.5q-64.5 63.5 -64.5 200.5v179q0 137 65 200.5t175 63.5q109 0 173.5 -63.5t64.5 -200.5v-179q0 -137 -65 -200.5t-174 -63.5q-110 0 -174.5 63.5zM471 252v180q0 201 -165 201q-83 0 -125 -47.5t-42 -153.5v-180q0 -101 42.5 -147t124.5 -46q165 0 165 193z
M329 880h84l-120 -125h-63z" />
    <glyph glyph-name="Ocircumflex" unicode="&#xd4;" 
d="M130.5 55.5q-64.5 63.5 -64.5 200.5v179q0 137 65 200.5t175 63.5q109 0 173.5 -63.5t64.5 -200.5v-179q0 -137 -65 -200.5t-174 -63.5q-110 0 -174.5 63.5zM471 252v180q0 201 -165 201q-83 0 -125 -47.5t-42 -153.5v-180q0 -101 42.5 -147t124.5 -46q165 0 165 193z
M277 889h55l107 -144h-62l-72 95l-73 -95h-62z" />
    <glyph glyph-name="Otilde" unicode="&#xd5;" 
d="M130.5 55.5q-64.5 63.5 -64.5 200.5v179q0 137 65 200.5t175 63.5q109 0 173.5 -63.5t64.5 -200.5v-179q0 -137 -65 -200.5t-174 -63.5q-110 0 -174.5 63.5zM471 252v180q0 201 -165 201q-83 0 -125 -47.5t-42 -153.5v-180q0 -101 42.5 -147t124.5 -46q165 0 165 193z
M181 813q17 20 33 29t36 9q16 0 29 -5t31 -15q15 -9 26.5 -14t25.5 -5q18 0 31.5 8.5t34.5 30.5v-61q-32 -37 -69 -37q-17 0 -30 5t-32 16q-3 2 -13 7t-19 7.5t-17 2.5q-19 0 -33 -8.5t-34 -30.5v61z" />
    <glyph glyph-name="Odieresis" unicode="&#xd6;" 
d="M130.5 55.5q-64.5 63.5 -64.5 200.5v179q0 137 65 200.5t175 63.5q109 0 173.5 -63.5t64.5 -200.5v-179q0 -137 -65 -200.5t-174 -63.5q-110 0 -174.5 63.5zM471 252v180q0 201 -165 201q-83 0 -125 -47.5t-42 -153.5v-180q0 -101 42.5 -147t124.5 -46q165 0 165 193z
M181 847h76v-86h-76v86zM352 847h76v-86h-76v86z" />
    <glyph glyph-name="multiply" unicode="&#xd7;" horiz-adv-x="512" 
d="M89 153l123 124l-123 123l44 44l123 -123l123 123l45 -44l-123 -123l123 -124l-45 -44l-123 123l-123 -123z" />
    <glyph glyph-name="Oslash" unicode="&#xd8;" 
d="M492 620q52 -66 52 -185v-179q0 -137 -65 -200.5t-174 -63.5q-92 0 -150 42l-31 -54h-58l52 90q-52 66 -52 186v179q0 137 65 200.5t175 63.5q91 0 149 -42l31 53h58zM159 141l260 453q-40 39 -113 39q-83 0 -125 -47.5t-42 -153.5v-180q0 -68 20 -111zM451 548
l-260 -452q40 -37 115 -37q165 0 165 193v180q0 71 -20 116z" />
    <glyph glyph-name="Ugrave" unicode="&#xd9;" horiz-adv-x="635" 
d="M196 23q-54 29 -85 82t-31 120v465h74v-459q0 -79 44.5 -125.5t119.5 -46.5q74 0 119 46.5t45 125.5v459h73v-465q0 -68 -30.5 -120.5t-84.5 -81.5t-122 -29t-122 29zM191 880h84l99 -125h-63z" />
    <glyph glyph-name="Uacute" unicode="&#xda;" horiz-adv-x="635" 
d="M196 23q-54 29 -85 82t-31 120v465h74v-459q0 -79 44.5 -125.5t119.5 -46.5q74 0 119 46.5t45 125.5v459h73v-465q0 -68 -30.5 -120.5t-84.5 -81.5t-122 -29t-122 29zM341 880h84l-120 -125h-63z" />
    <glyph glyph-name="Ucircumflex" unicode="&#xdb;" horiz-adv-x="635" 
d="M196 23q-54 29 -85 82t-31 120v465h74v-459q0 -79 44.5 -125.5t119.5 -46.5q74 0 119 46.5t45 125.5v459h73v-465q0 -68 -30.5 -120.5t-84.5 -81.5t-122 -29t-122 29zM289 889h55l107 -144h-62l-72 95l-73 -95h-62z" />
    <glyph glyph-name="Udieresis" unicode="&#xdc;" horiz-adv-x="635" 
d="M196 23q-54 29 -85 82t-31 120v465h74v-459q0 -79 44.5 -125.5t119.5 -46.5q74 0 119 46.5t45 125.5v459h73v-465q0 -68 -30.5 -120.5t-84.5 -81.5t-122 -29t-122 29zM193 847h76v-86h-76v86zM364 847h76v-86h-76v86z" />
    <glyph glyph-name="Yacute" unicode="&#xdd;" horiz-adv-x="499" 
d="M286 289v-289h-73v290l-206 400h79l163 -331l164 331h79zM274 880h84l-120 -125h-63z" />
    <glyph glyph-name="Thorn" unicode="&#xde;" horiz-adv-x="577" 
d="M477 510.5q58 -53.5 58 -152.5q0 -93 -58.5 -146t-158.5 -53h-165v-159h-73v690h73v-126h165q101 0 159 -53.5zM423 258q39 33 39 100q0 71 -39 106t-111 35h-159v-274h159q72 0 111 33z" />
    <glyph glyph-name="germandbls" unicode="&#xdf;" horiz-adv-x="505" 
d="M251 58h26q46 0 67 16t27 49t6 102q0 67 -6 100.5t-28.5 50.5t-71.5 17h-21v62h27q49 0 70.5 21.5t21.5 66.5q0 47 -27.5 69.5t-82.5 22.5q-60 0 -88 -28.5t-28 -91.5v-515h-68v506q0 94 43 142.5t140 48.5q87 0 133.5 -40t46.5 -113q0 -44 -16 -72t-49 -45
q32 -15 47.5 -39t20.5 -60.5t5 -102.5q0 -88 -12 -136t-47.5 -70.5t-106.5 -22.5h-29v62z" />
    <glyph glyph-name="agrave" unicode="&#xe0;" horiz-adv-x="497" 
d="M374.5 471q47.5 -43 47.5 -126v-345h-67v54q-23 -31 -57 -45.5t-83 -14.5q-80 0 -124 38t-44 111q0 68 44.5 106.5t125.5 38.5h137v58q0 55 -30 83t-85 28q-52 0 -81.5 -23.5t-29.5 -64.5v-3h-66v5q0 65 47 104t129 39q89 0 136.5 -43zM323.5 79.5q30.5 30.5 30.5 92.5
v66h-127q-112 0 -112 -94q0 -95 111 -95q67 0 97.5 30.5zM120 697h84l99 -125h-63z" />
    <glyph glyph-name="aacute" unicode="&#xe1;" horiz-adv-x="497" 
d="M374.5 471q47.5 -43 47.5 -126v-345h-67v54q-23 -31 -57 -45.5t-83 -14.5q-80 0 -124 38t-44 111q0 68 44.5 106.5t125.5 38.5h137v58q0 55 -30 83t-85 28q-52 0 -81.5 -23.5t-29.5 -64.5v-3h-66v5q0 65 47 104t129 39q89 0 136.5 -43zM323.5 79.5q30.5 30.5 30.5 92.5
v66h-127q-112 0 -112 -94q0 -95 111 -95q67 0 97.5 30.5zM270 697h84l-120 -125h-63z" />
    <glyph glyph-name="acircumflex" unicode="&#xe2;" horiz-adv-x="497" 
d="M374.5 471q47.5 -43 47.5 -126v-345h-67v54q-23 -31 -57 -45.5t-83 -14.5q-80 0 -124 38t-44 111q0 68 44.5 106.5t125.5 38.5h137v58q0 55 -30 83t-85 28q-52 0 -81.5 -23.5t-29.5 -64.5v-3h-66v5q0 65 47 104t129 39q89 0 136.5 -43zM323.5 79.5q30.5 30.5 30.5 92.5
v66h-127q-112 0 -112 -94q0 -95 111 -95q67 0 97.5 30.5zM218 706h55l107 -144h-62l-72 95l-73 -95h-62z" />
    <glyph glyph-name="atilde" unicode="&#xe3;" horiz-adv-x="497" 
d="M374.5 471q47.5 -43 47.5 -126v-345h-67v54q-23 -31 -57 -45.5t-83 -14.5q-80 0 -124 38t-44 111q0 68 44.5 106.5t125.5 38.5h137v58q0 55 -30 83t-85 28q-52 0 -81.5 -23.5t-29.5 -64.5v-3h-66v5q0 65 47 104t129 39q89 0 136.5 -43zM323.5 79.5q30.5 30.5 30.5 92.5
v66h-127q-112 0 -112 -94q0 -95 111 -95q67 0 97.5 30.5zM122 630q17 20 33 29t36 9q16 0 29 -5t31 -15q15 -9 26.5 -14t25.5 -5q18 0 31.5 8.5t34.5 30.5v-61q-32 -37 -69 -37q-17 0 -30 5t-32 16q-3 2 -13 7t-19 7.5t-17 2.5q-19 0 -33 -8.5t-34 -30.5v61z" />
    <glyph glyph-name="adieresis" unicode="&#xe4;" horiz-adv-x="497" 
d="M374.5 471q47.5 -43 47.5 -126v-345h-67v54q-23 -31 -57 -45.5t-83 -14.5q-80 0 -124 38t-44 111q0 68 44.5 106.5t125.5 38.5h137v58q0 55 -30 83t-85 28q-52 0 -81.5 -23.5t-29.5 -64.5v-3h-66v5q0 65 47 104t129 39q89 0 136.5 -43zM323.5 79.5q30.5 30.5 30.5 92.5
v66h-127q-112 0 -112 -94q0 -95 111 -95q67 0 97.5 30.5zM122 664h76v-86h-76v86zM293 664h76v-86h-76v86z" />
    <glyph glyph-name="aring" unicode="&#xe5;" horiz-adv-x="497" 
d="M374.5 471q47.5 -43 47.5 -126v-345h-67v54q-23 -31 -57 -45.5t-83 -14.5q-80 0 -124 38t-44 111q0 68 44.5 106.5t125.5 38.5h137v58q0 55 -30 83t-85 28q-52 0 -81.5 -23.5t-29.5 -64.5v-3h-66v5q0 65 47 104t129 39q89 0 136.5 -43zM323.5 79.5q30.5 30.5 30.5 92.5
v66h-127q-112 0 -112 -94q0 -95 111 -95q67 0 97.5 30.5zM180.5 585q-25.5 26 -25.5 65q0 40 25.5 66t65.5 26q39 0 65 -26t26 -66q0 -39 -26 -65t-65 -26q-40 0 -65.5 26zM283 612q15 15 15 38t-15 38.5t-37 15.5t-37 -15.5t-15 -38.5t15 -38t37 -15t37 15z" />
    <glyph glyph-name="ae" unicode="&#xe6;" horiz-adv-x="798" 
d="M422 240v-30q0 -86 35 -120.5t97 -34.5q54 0 84.5 26t30.5 72v3h66v-5q0 -69 -47.5 -113t-132.5 -44q-54 0 -96.5 19.5t-68.5 61.5q-52 -81 -169 -81q-81 0 -127.5 38.5t-46.5 110.5q0 68 44.5 106.5t125.5 38.5h137v58q0 55 -30 83t-85 28q-52 0 -81.5 -23.5
t-29.5 -64.5v-3h-66v5q0 65 47 104t129 39q111 0 157 -67q50 67 152 67q87 0 139.5 -52.5t52.5 -161.5v-60h-317zM456 418.5q-34 -33.5 -34 -116.5v-11h248v18q0 79 -32.5 111t-90.5 32q-57 0 -91 -33.5zM354 238h-127q-112 0 -112 -94q0 -95 111 -95q128 0 128 128v61z" />
    <glyph glyph-name="ccedilla" unicode="&#xe7;" horiz-adv-x="503" 
d="M378 340v5q0 51 -32 79t-87 28q-62 0 -97 -33.5t-35 -116.5v-96q0 -84 34.5 -117.5t96.5 -33.5q56 0 88 28t32 79v5h66v-4q0 -64 -36 -107.5t-99 -56.5l-49 -149h-71l56 144q-86 3 -136 53t-50 155v104q0 108 53.5 158t143.5 50q87 0 137.5 -46t50.5 -123v-5h-66z" />
    <glyph glyph-name="egrave" unicode="&#xe8;" horiz-adv-x="503" 
d="M127 240v-30q0 -86 35 -120.5t97 -34.5q54 0 84.5 26t30.5 72v3h66v-5q0 -71 -49.5 -114t-136.5 -43q-89 0 -142 53t-53 165v88q0 109 53 161.5t140 52.5t139.5 -52.5t52.5 -161.5v-60h-317zM161 418.5q-34 -33.5 -34 -116.5v-11h249v18q0 79 -33 111t-91 32
q-57 0 -91 -33.5zM126 697h84l99 -125h-63z" />
    <glyph glyph-name="eacute" unicode="&#xe9;" horiz-adv-x="503" 
d="M127 240v-30q0 -86 35 -120.5t97 -34.5q54 0 84.5 26t30.5 72v3h66v-5q0 -71 -49.5 -114t-136.5 -43q-89 0 -142 53t-53 165v88q0 109 53 161.5t140 52.5t139.5 -52.5t52.5 -161.5v-60h-317zM161 418.5q-34 -33.5 -34 -116.5v-11h249v18q0 79 -33 111t-91 32
q-57 0 -91 -33.5zM276 697h84l-120 -125h-63z" />
    <glyph glyph-name="ecircumflex" unicode="&#xea;" horiz-adv-x="503" 
d="M127 240v-30q0 -86 35 -120.5t97 -34.5q54 0 84.5 26t30.5 72v3h66v-5q0 -71 -49.5 -114t-136.5 -43q-89 0 -142 53t-53 165v88q0 109 53 161.5t140 52.5t139.5 -52.5t52.5 -161.5v-60h-317zM161 418.5q-34 -33.5 -34 -116.5v-11h249v18q0 79 -33 111t-91 32
q-57 0 -91 -33.5zM224 706h55l107 -144h-62l-72 95l-73 -95h-62z" />
    <glyph glyph-name="edieresis" unicode="&#xeb;" horiz-adv-x="503" 
d="M127 240v-30q0 -86 35 -120.5t97 -34.5q54 0 84.5 26t30.5 72v3h66v-5q0 -71 -49.5 -114t-136.5 -43q-89 0 -142 53t-53 165v88q0 109 53 161.5t140 52.5t139.5 -52.5t52.5 -161.5v-60h-317zM161 418.5q-34 -33.5 -34 -116.5v-11h249v18q0 79 -33 111t-91 32
q-57 0 -91 -33.5zM128 664h76v-86h-76v86zM299 664h76v-86h-76v86z" />
    <glyph glyph-name="igrave" unicode="&#xec;" horiz-adv-x="234" 
d="M83 507h68v-507h-68v507zM-39 697h84l99 -125h-63z" />
    <glyph glyph-name="iacute" unicode="&#xed;" horiz-adv-x="234" 
d="M83 507h68v-507h-68v507zM172 697h84l-120 -125h-63z" />
    <glyph glyph-name="icircumflex" unicode="&#xee;" horiz-adv-x="234" 
d="M83 507h68v-507h-68v507zM89 706h55l107 -144h-62l-72 95l-73 -95h-62z" />
    <glyph glyph-name="idieresis" unicode="&#xef;" horiz-adv-x="234" 
d="M83 507h68v-507h-68v507zM-7 664h76v-86h-76v86zM164 664h76v-86h-76v86z" />
    <glyph glyph-name="eth" unicode="&#xf0;" horiz-adv-x="496" 
d="M417.5 384.5q19.5 -55.5 19.5 -117.5v-55q0 -110 -49.5 -165.5t-140.5 -55.5q-90 0 -139 55t-49 161v55q0 102 45.5 157t126.5 55q41 0 70 -14l-68 93l-102 -31l-15 54l82 25l-64 89h82l50 -68l99 30l15 -54l-79 -24l56 -78q41 -56 60.5 -111.5zM368 262q0 149 -119 149
q-122 0 -122 -147v-57q0 -151 122 -151q119 0 119 150v56z" />
    <glyph glyph-name="ntilde" unicode="&#xf1;" horiz-adv-x="522" 
d="M75 507h67v-62q22 34 57.5 51t79.5 17q81 0 124.5 -47.5t43.5 -132.5v-333h-68v323q0 63 -31 96t-86 33q-54 0 -86.5 -33.5t-32.5 -95.5v-323h-68v507zM138 630q17 20 33 29t36 9q16 0 29 -5t31 -15q15 -9 26.5 -14t25.5 -5q18 0 31.5 8.5t34.5 30.5v-61q-32 -37 -69 -37
q-17 0 -30 5t-32 16q-3 2 -13 7t-19 7.5t-17 2.5q-19 0 -33 -8.5t-34 -30.5v61z" />
    <glyph glyph-name="ograve" unicode="&#xf2;" horiz-adv-x="505" 
d="M112 43.5q-53 49.5 -53 158.5v104q0 108 53 158t142 50q87 0 139.5 -50t52.5 -158v-104q0 -108 -52.5 -158t-139.5 -50q-89 0 -142 49.5zM344.5 88.5q33.5 33.5 33.5 117.5v96q0 83 -33.5 116.5t-90.5 33.5q-59 0 -93 -33.5t-34 -116.5v-96q0 -84 34 -117.5t93 -33.5
q57 0 90.5 33.5zM126 697h84l99 -125h-63z" />
    <glyph glyph-name="oacute" unicode="&#xf3;" horiz-adv-x="505" 
d="M112 43.5q-53 49.5 -53 158.5v104q0 108 53 158t142 50q87 0 139.5 -50t52.5 -158v-104q0 -108 -52.5 -158t-139.5 -50q-89 0 -142 49.5zM344.5 88.5q33.5 33.5 33.5 117.5v96q0 83 -33.5 116.5t-90.5 33.5q-59 0 -93 -33.5t-34 -116.5v-96q0 -84 34 -117.5t93 -33.5
q57 0 90.5 33.5zM276 697h84l-120 -125h-63z" />
    <glyph glyph-name="ocircumflex" unicode="&#xf4;" horiz-adv-x="505" 
d="M112 43.5q-53 49.5 -53 158.5v104q0 108 53 158t142 50q87 0 139.5 -50t52.5 -158v-104q0 -108 -52.5 -158t-139.5 -50q-89 0 -142 49.5zM344.5 88.5q33.5 33.5 33.5 117.5v96q0 83 -33.5 116.5t-90.5 33.5q-59 0 -93 -33.5t-34 -116.5v-96q0 -84 34 -117.5t93 -33.5
q57 0 90.5 33.5zM224 706h55l107 -144h-62l-72 95l-73 -95h-62z" />
    <glyph glyph-name="otilde" unicode="&#xf5;" horiz-adv-x="505" 
d="M112 43.5q-53 49.5 -53 158.5v104q0 108 53 158t142 50q87 0 139.5 -50t52.5 -158v-104q0 -108 -52.5 -158t-139.5 -50q-89 0 -142 49.5zM344.5 88.5q33.5 33.5 33.5 117.5v96q0 83 -33.5 116.5t-90.5 33.5q-59 0 -93 -33.5t-34 -116.5v-96q0 -84 34 -117.5t93 -33.5
q57 0 90.5 33.5zM128 630q17 20 33 29t36 9q16 0 29 -5t31 -15q15 -9 26.5 -14t25.5 -5q18 0 31.5 8.5t34.5 30.5v-61q-32 -37 -69 -37q-17 0 -30 5t-32 16q-3 2 -13 7t-19 7.5t-17 2.5q-19 0 -33 -8.5t-34 -30.5v61z" />
    <glyph glyph-name="odieresis" unicode="&#xf6;" horiz-adv-x="505" 
d="M112 43.5q-53 49.5 -53 158.5v104q0 108 53 158t142 50q87 0 139.5 -50t52.5 -158v-104q0 -108 -52.5 -158t-139.5 -50q-89 0 -142 49.5zM344.5 88.5q33.5 33.5 33.5 117.5v96q0 83 -33.5 116.5t-90.5 33.5q-59 0 -93 -33.5t-34 -116.5v-96q0 -84 34 -117.5t93 -33.5
q57 0 90.5 33.5zM128 664h76v-86h-76v86zM299 664h76v-86h-76v86z" />
    <glyph glyph-name="divide" unicode="&#xf7;" horiz-adv-x="512" 
d="M222 384q-14 14 -14 34t14 34t34 14t34 -14t14 -34t-14 -34t-34 -14t-34 14zM57 309h398v-66h-398v66zM222 102q-14 14 -14 34t14 34t34 14t34 -14t14 -34t-14 -34t-34 -14t-34 14z" />
    <glyph glyph-name="oslash" unicode="&#xf8;" horiz-adv-x="505" 
d="M400 457q46 -52 46 -151v-104q0 -108 -52.5 -158t-139.5 -50q-71 0 -118 30l-33 -54h-44l48 79q-48 53 -48 153v104q0 108 53 158t142 50q70 0 117 -32l31 51h44zM145 111l192 315q-30 26 -83 26q-59 0 -93 -33.5t-34 -116.5v-96q0 -57 18 -95zM361 394l-191 -314
q29 -25 84 -25q57 0 90.5 33.5t33.5 117.5v96q0 56 -17 92z" />
    <glyph glyph-name="ugrave" unicode="&#xf9;" horiz-adv-x="522" 
d="M121.5 43.5q-46.5 49.5 -46.5 142.5v321h68v-312q0 -70 27 -105t91 -35t91 34t27 106v312h68v-321q0 -93 -46.5 -142.5t-140.5 -49.5q-92 0 -138.5 49.5zM135 697h84l99 -125h-63z" />
    <glyph glyph-name="uacute" unicode="&#xfa;" horiz-adv-x="522" 
d="M121.5 43.5q-46.5 49.5 -46.5 142.5v321h68v-312q0 -70 27 -105t91 -35t91 34t27 106v312h68v-321q0 -93 -46.5 -142.5t-140.5 -49.5q-92 0 -138.5 49.5zM285 697h84l-120 -125h-63z" />
    <glyph glyph-name="ucircumflex" unicode="&#xfb;" horiz-adv-x="522" 
d="M121.5 43.5q-46.5 49.5 -46.5 142.5v321h68v-312q0 -70 27 -105t91 -35t91 34t27 106v312h68v-321q0 -93 -46.5 -142.5t-140.5 -49.5q-92 0 -138.5 49.5zM233 706h55l107 -144h-62l-72 95l-73 -95h-62z" />
    <glyph glyph-name="udieresis" unicode="&#xfc;" horiz-adv-x="522" 
d="M121.5 43.5q-46.5 49.5 -46.5 142.5v321h68v-312q0 -70 27 -105t91 -35t91 34t27 106v312h68v-321q0 -93 -46.5 -142.5t-140.5 -49.5q-92 0 -138.5 49.5zM137 664h76v-86h-76v86zM308 664h76v-86h-76v86z" />
    <glyph glyph-name="yacute" unicode="&#xfd;" horiz-adv-x="439" 
d="M425 507l-195 -562q-18 -51 -49.5 -74t-83.5 -23h-30v62h25q37 0 55.5 15t30.5 49l10 31l-174 502h74l133 -403l133 403h71zM243 697h84l-120 -125h-63z" />
    <glyph glyph-name="thorn" unicode="&#xfe;" horiz-adv-x="510" 
d="M75 690h68v-254q21 38 54.5 58t77.5 20q78 0 127 -50.5t49 -157.5v-104q0 -107 -48 -157.5t-123 -50.5q-95 0 -137 73v-219h-68v842zM383 206v96q0 150 -117 150q-61 0 -92 -42.5t-31 -113.5v-89q0 -67 32.5 -109.5t94.5 -42.5q113 0 113 151z" />
    <glyph glyph-name="ydieresis" unicode="&#xff;" horiz-adv-x="439" 
d="M425 507l-195 -562q-18 -51 -49.5 -74t-83.5 -23h-30v62h25q37 0 55.5 15t30.5 49l10 31l-174 502h74l133 -403l133 403h71zM95 664h76v-86h-76v86zM266 664h76v-86h-76v86z" />
    <glyph glyph-name="dotlessi" unicode="&#x131;" horiz-adv-x="234" 
d="M83 507h68v-507h-68v507z" />
    <glyph glyph-name="OE" unicode="&#x152;" horiz-adv-x="893" 
d="M543 624v-166q1 -11 1 -34v-40h250v-66h-250v-51q0 -23 -1 -34v-167h302v-66h-374v49q-61 -57 -167 -57q-110 0 -174 63t-64 201v179q0 137 64.5 200.5t174.5 63.5q106 0 166 -57v48h374v-66h-302zM471 252v180q0 201 -165 201q-83 0 -125 -47.5t-42 -153.5v-180
q0 -101 42.5 -147t124.5 -46q165 0 165 193z" />
    <glyph glyph-name="oe" unicode="&#x153;" horiz-adv-x="822" 
d="M446 240v-30q0 -86 35 -120.5t97 -34.5q54 0 84.5 26t30.5 72v3h66v-5q0 -71 -49.5 -114t-136.5 -43q-110 0 -160 75q-47 -75 -159 -75q-89 0 -142 49.5t-53 158.5v104q0 108 53 158t142 50q111 0 159 -75q25 38 65.5 56.5t91.5 18.5q88 0 140.5 -52.5t52.5 -161.5v-60
h-317zM378 302q0 83 -33.5 116.5t-90.5 33.5q-59 0 -93 -33.5t-34 -116.5v-96q0 -84 34 -117.5t93 -33.5q57 0 90.5 33.5t33.5 117.5v96zM479.5 418.5q-33.5 -33.5 -33.5 -116.5v-11h248v18q0 78 -33 110.5t-90 32.5q-58 0 -91.5 -33.5z" />
    <glyph glyph-name="Scaron" unicode="&#x160;" horiz-adv-x="546" 
d="M101 45q-59 51 -68 150h72q14 -137 164 -137q78 0 118.5 33t40.5 96q0 57 -32 86t-97 40l-78 13q-84 14 -129 57.5t-45 122.5q0 91 61 142t161 51q92 0 150.5 -47.5t69.5 -144.5h-72q-12 129 -149 129q-71 0 -110.5 -33.5t-39.5 -91.5q0 -51 30.5 -79.5t92.5 -39.5
l80 -14q87 -15 133 -60t46 -127q0 -94 -63 -145.5t-173 -51.5q-104 0 -163 51zM138 890h62l73 -95l72 95h62l-107 -144h-55z" />
    <glyph glyph-name="scaron" unicode="&#x161;" horiz-adv-x="462" 
d="M97 34q-50 40 -50 108v4h66v-3q0 -42 32.5 -66.5t87.5 -24.5q57 0 89.5 23t32.5 66q0 38 -22.5 56t-72.5 27l-63 11q-74 13 -108 44t-34 90q0 66 49 105.5t127 39.5q84 0 134 -38.5t50 -100.5v-6h-66v3q0 40 -31 63t-85 23q-53 0 -82.5 -23t-29.5 -63q0 -33 21 -51.5
t67 -26.5l66 -12q75 -14 110.5 -45.5t35.5 -91.5q0 -72 -52 -111.5t-139 -39.5q-83 0 -133 40zM96 707h62l73 -95l72 95h62l-107 -144h-55z" />
    <glyph glyph-name="Ydieresis" unicode="&#x178;" horiz-adv-x="499" 
d="M286 289v-289h-73v290l-206 400h79l163 -331l164 331h79zM126 847h76v-86h-76v86zM297 847h76v-86h-76v86z" />
    <glyph glyph-name="Zcaron" unicode="&#x17d;" horiz-adv-x="516" 
d="M480 66v-66h-440v66l354 558h-341v66h424v-66l-354 -558h357zM123 890h62l73 -95l72 95h62l-107 -144h-55z" />
    <glyph glyph-name="zcaron" unicode="&#x17e;" horiz-adv-x="456" 
d="M397 444l-262 -381h262v-63h-338v63l260 381h-260v63h338v-63zM93 707h62l73 -95l72 95h62l-107 -144h-55z" />
    <glyph glyph-name="florin" unicode="&#x192;" horiz-adv-x="406" 
d="M13 -86h28q40 0 58.5 17t25.5 65l52 351h-85v63h95l20 132q12 79 47.5 113.5t106.5 34.5h32v-66h-33q-38 0 -56.5 -17.5t-25.5 -63.5l-21 -133h105v-63h-115l-52 -349q-12 -82 -47 -116t-107 -34h-28v66z" />
    <glyph glyph-name="circumflex" unicode="&#x2c6;" horiz-adv-x="500" 
d="M222 706h55l107 -144h-62l-72 95l-73 -95h-62z" />
    <glyph glyph-name="caron" unicode="&#x2c7;" horiz-adv-x="500" 
d="M115 707h62l73 -95l72 95h62l-107 -144h-55z" />
    <glyph glyph-name="dotaccent" unicode="&#x2d9;" horiz-adv-x="500" 
d="M214 680h72v-90h-72v90z" />
    <glyph glyph-name="ring" unicode="&#x2da;" horiz-adv-x="500" 
d="M184.5 585q-25.5 26 -25.5 65q0 40 25.5 66t65.5 26q39 0 65 -26t26 -66q0 -39 -26 -65t-65 -26q-40 0 -65.5 26zM287 612q15 15 15 38t-15 38.5t-37 15.5t-37 -15.5t-15 -38.5t15 -38t37 -15t37 15z" />
    <glyph glyph-name="tilde" unicode="&#x2dc;" horiz-adv-x="500" 
d="M126 630q17 20 33 29t36 9q16 0 29 -5t31 -15q15 -9 26.5 -14t25.5 -5q18 0 31.5 8.5t34.5 30.5v-61q-32 -37 -69 -37q-17 0 -30 5t-32 16q-3 2 -13 7t-19 7.5t-17 2.5q-19 0 -33 -8.5t-34 -30.5v61z" />
    <glyph glyph-name="gravecomb" unicode="&#x300;" horiz-adv-x="0" 
d="M-126 697h84l99 -125h-63z" />
    <glyph glyph-name="acutecomb" unicode="&#x301;" horiz-adv-x="0" 
d="M24 697h84l-120 -125h-63z" />
    <glyph glyph-name="uni0302" unicode="&#x302;" horiz-adv-x="0" 
d="M-28 706h55l107 -144h-62l-72 95l-73 -95h-62z" />
    <glyph glyph-name="tildecomb" unicode="&#x303;" horiz-adv-x="0" 
d="M-124 630q17 20 33 29t36 9q16 0 29 -5t31 -15q15 -9 26.5 -14t25.5 -5q18 0 31.5 8.5t34.5 30.5v-61q-32 -37 -69 -37q-17 0 -30 5t-32 16q-3 2 -13 7t-19 7.5t-17 2.5q-19 0 -33 -8.5t-34 -30.5v61z" />
    <glyph glyph-name="uni0308" unicode="&#x308;" horiz-adv-x="0" 
d="M-124 664h76v-86h-76v86zM47 664h76v-86h-76v86z" />
    <glyph glyph-name="uni030A" unicode="&#x30a;" horiz-adv-x="0" 
d="M-65.5 585q-25.5 26 -25.5 65q0 40 25.5 66t65.5 26q39 0 65 -26t26 -66q0 -39 -26 -65t-65 -26q-40 0 -65.5 26zM37 612q15 15 15 38t-15 38.5t-37 15.5t-37 -15.5t-15 -38.5t15 -38t37 -15t37 15z" />
    <glyph glyph-name="endash" unicode="&#x2013;" horiz-adv-x="417" 
d="M0 380h417v-66h-417v66z" />
    <glyph glyph-name="emdash" unicode="&#x2014;" horiz-adv-x="833" 
d="M0 380h833v-66h-833v66z" />
    <glyph glyph-name="quoteleft" unicode="&#x2018;" horiz-adv-x="172" 
d="M119 495h-66v168l66 62v-230zM67 690z" />
    <glyph glyph-name="quoteright" unicode="&#x2019;" horiz-adv-x="172" 
d="M53 690h66v-168l-66 -62v230z" />
    <glyph glyph-name="quotesinglbase" unicode="&#x201a;" horiz-adv-x="172" 
d="M53 93h66v-168l-66 -62v230z" />
    <glyph glyph-name="quotedblleft" unicode="&#x201c;" horiz-adv-x="308" 
d="M118 495h-66v168l66 62v-230zM255 495h-66v168l66 62v-230zM103 690z" />
    <glyph glyph-name="quotedblright" unicode="&#x201d;" horiz-adv-x="308" 
d="M53 691h66v-168l-66 -62v230zM190 691h66v-168l-66 -62v230z" />
    <glyph glyph-name="quotedblbase" unicode="&#x201e;" horiz-adv-x="308" 
d="M189 93h66v-168l-66 -62v230zM53 93h66v-168l-66 -62v230z" />
    <glyph glyph-name="dagger" unicode="&#x2020;" horiz-adv-x="527" 
d="M452 381h-152v-533h-73v533h-152v65h152v244h73v-244h152v-65z" />
    <glyph glyph-name="daggerdbl" unicode="&#x2021;" horiz-adv-x="527" 
d="M300 384v-227h152v-66h-152v-243h-73v243h-152v66h152v227h-152v66h152v240h73v-240h152v-66h-152z" />
    <glyph glyph-name="bullet" unicode="&#x2022;" horiz-adv-x="471" 
d="M147.5 220.5q-34.5 34.5 -34.5 87.5t34.5 87.5t87.5 34.5t88 -34.5t35 -87.5t-35 -87.5t-88 -34.5t-87.5 34.5z" />
    <glyph glyph-name="ellipsis" unicode="&#x2026;" horiz-adv-x="664" 
d="M53 92h88v-92h-88v92zM523 92h88v-92h-88v92zM288 92h88v-92h-88v92z" />
    <glyph glyph-name="perthousand" unicode="&#x2030;" horiz-adv-x="1157" 
d="M71 304q-29 37 -29 111v139q0 71 30.5 107t90.5 36q63 0 92.5 -35.5t29.5 -107.5v-139q0 -74 -29.5 -111t-92.5 -37t-92 37zM570 690h63l-373 -690h-63zM205 346.5q11 21.5 11 71.5v130q0 48 -11.5 69t-41.5 21t-41.5 -21t-11.5 -69v-130q0 -50 11.5 -71.5t41.5 -21.5
q31 0 42 21.5zM574 31q-29 37 -29 111v139q0 71 30.5 107t90.5 36q63 0 92.5 -35.5t29.5 -107.5v-139q0 -74 -29.5 -111t-92.5 -37t-92 37zM901 31q-29 37 -29 111v139q0 71 30.5 107t90.5 36q63 0 92.5 -35.5t29.5 -107.5v-139q0 -74 -29.5 -111t-92.5 -37t-92 37z
M708 73.5q11 21.5 11 71.5v130q0 48 -11.5 69t-41.5 21t-41.5 -21t-11.5 -69v-130q0 -50 11.5 -71.5t41.5 -21.5q31 0 42 21.5zM1035 73.5q11 21.5 11 71.5v130q0 48 -11.5 69t-41.5 21t-41.5 -21t-11.5 -69v-130q0 -50 11.5 -71.5t41.5 -21.5q31 0 42 21.5z" />
    <glyph glyph-name="guilsinglleft" unicode="&#x2039;" horiz-adv-x="295" 
d="M25 264l195 198v-83l-113 -115l113 -115v-83z" />
    <glyph glyph-name="guilsinglright" unicode="&#x203a;" horiz-adv-x="308" 
d="M75 149l113 115l-113 115v83l195 -198l-195 -198v83z" />
    <glyph glyph-name="Euro" unicode="&#x20ac;" horiz-adv-x="542" 
d="M145.5 49q-47.5 59 -47.5 157v49h-60v57h60v72h-60v56h60v52q0 93 48.5 150.5t145.5 57.5q80 0 127 -42.5t53 -116.5h-65q-9 45 -36.5 69t-79.5 24q-65 0 -92.5 -40t-27.5 -101v-53h207l-11 -56h-196v-72h182l-10 -57h-172v-51q0 -67 28.5 -107.5t93.5 -40.5q96 0 114 93
h69q-7 -75 -56.5 -117t-127.5 -42q-99 0 -146.5 59z" />
    <glyph glyph-name="trademark" unicode="&#x2122;" horiz-adv-x="819" 
d="M155 637h-115v53h288v-53h-114v-341h-59v341zM397 690h54l117 -264h3l114 264h54v-394h-56v261h-2l-91 -203h-43l-92 203h-2v-261h-56v394z" />
    <glyph glyph-name="NULL" horiz-adv-x="600" 
 />
    <glyph glyph-name="t_t" horiz-adv-x="626" 
d="M467 453v-324q0 -69 66 -69h40v-60h-51q-58 0 -90.5 33.5t-32.5 92.5v327h-217v-324q0 -69 65 -69h40v-60h-51q-58 0 -90.5 33.5t-32.5 92.5v327h-79v54h79v116l69 32v-148h217v116l68 32v-148h115v-54h-115z" />
    <glyph glyph-name="zero.dnom" horiz-adv-x="327" 
d="M71 31q-29 37 -29 111v139q0 71 30.5 107t90.5 36q63 0 92.5 -35.5t29.5 -107.5v-139q0 -74 -29.5 -111t-92.5 -37t-92 37zM205 73.5q11 21.5 11 71.5v130q0 48 -11.5 69t-41.5 21t-41.5 -21t-11.5 -69v-130q0 -50 11.5 -71.5t41.5 -21.5q31 0 42 21.5z" />
    <glyph glyph-name="one.dnom" horiz-adv-x="222" 
d="M99 344l-73 -55v74l73 54h69v-417h-69v344z" />
    <glyph glyph-name="two.dnom" horiz-adv-x="321" 
d="M45 52l139 188q13 18 19 33t6 32v8q0 26 -13.5 40.5t-36.5 14.5q-24 0 -37.5 -15t-13.5 -45v-11h-66v15q0 51 32.5 81.5t86.5 30.5q53 0 85 -30t32 -78v-11q0 -27 -9.5 -50t-29.5 -49l-107 -147h147v-59h-234v52z" />
    <glyph glyph-name="three.dnom" horiz-adv-x="319" 
d="M70 22.5q-31 28.5 -31 78.5v11h60v-10q0 -24 15 -38.5t41 -14.5q27 0 42 16.5t15 45.5v13q0 29 -16.5 46.5t-44.5 17.5h-21v56h21q25 0 39.5 15.5t14.5 41.5v10q0 27 -13.5 42t-37.5 15q-25 0 -38.5 -14t-13.5 -38v-10h-61v11q0 49 31 78t84 29t84 -29.5t31 -77.5v-10
q0 -30 -14 -52t-37 -34q27 -11 42 -37t15 -61v-12q0 -52 -33.5 -84.5t-87.5 -32.5q-55 0 -86 28.5z" />
    <glyph glyph-name="four.dnom" horiz-adv-x="332" 
d="M301 75h-39v-75h-69v75h-157v59l117 283h68l-116 -283h88v98h69v-98h39v-59z" />
    <glyph glyph-name="zero.numr" horiz-adv-x="327" 
d="M71 304q-29 37 -29 111v139q0 71 30.5 107t90.5 36q63 0 92.5 -35.5t29.5 -107.5v-139q0 -74 -29.5 -111t-92.5 -37t-92 37zM205 346.5q11 21.5 11 71.5v130q0 48 -11.5 69t-41.5 21t-41.5 -21t-11.5 -69v-130q0 -50 11.5 -71.5t41.5 -21.5q31 0 42 21.5z" />
    <glyph glyph-name="one.numr" horiz-adv-x="222" 
d="M99 617l-73 -55v74l73 54h69v-417h-69v344z" />
    <glyph glyph-name="two.numr" horiz-adv-x="321" 
d="M45 325l139 188q13 18 19 33t6 32v8q0 26 -13.5 40.5t-36.5 14.5q-24 0 -37.5 -15t-13.5 -45v-11h-66v15q0 51 32.5 81.5t86.5 30.5q53 0 85 -30t32 -78v-11q0 -27 -9.5 -50t-29.5 -49l-107 -147h147v-59h-234v52z" />
    <glyph glyph-name="three.numr" horiz-adv-x="319" 
d="M70 295.5q-31 28.5 -31 78.5v11h60v-10q0 -24 15 -38.5t41 -14.5q27 0 42 16.5t15 45.5v13q0 29 -16.5 46.5t-44.5 17.5h-21v56h21q25 0 39.5 15.5t14.5 41.5v10q0 27 -13.5 42t-37.5 15q-25 0 -38.5 -14t-13.5 -38v-10h-61v11q0 49 31 78t84 29t84 -29.5t31 -77.5v-10
q0 -30 -14 -52t-37 -34q27 -11 42 -37t15 -61v-12q0 -52 -33.5 -84.5t-87.5 -32.5q-55 0 -86 28.5z" />
    <glyph glyph-name="four.numr" horiz-adv-x="332" 
d="M301 348h-39v-75h-69v75h-157v59l117 283h68l-116 -283h88v98h69v-98h39v-59z" />
    <glyph glyph-name="zero.sups" horiz-adv-x="327" 
d="M71 461q-29 37 -29 111v139q0 71 30.5 107t90.5 36q63 0 92.5 -35.5t29.5 -107.5v-139q0 -74 -29.5 -111t-92.5 -37t-92 37zM205 503.5q11 21.5 11 71.5v130q0 48 -11.5 69t-41.5 21t-41.5 -21t-11.5 -69v-130q0 -50 11.5 -71.5t41.5 -21.5q31 0 42 21.5z" />
    <glyph glyph-name="one.sups" horiz-adv-x="222" 
d="M99 774l-73 -55v74l73 54h69v-417h-69v344z" />
    <glyph glyph-name="two.sups" horiz-adv-x="321" 
d="M45 482l139 188q13 18 19 33t6 32v8q0 26 -13.5 40.5t-36.5 14.5q-24 0 -37.5 -15t-13.5 -45v-11h-66v15q0 51 32.5 81.5t86.5 30.5q53 0 85 -30t32 -78v-11q0 -27 -9.5 -50t-29.5 -49l-107 -147h147v-59h-234v52z" />
    <glyph glyph-name="three.sups" horiz-adv-x="319" 
d="M70 452.5q-31 28.5 -31 78.5v11h60v-10q0 -24 15 -38.5t41 -14.5q27 0 42 16.5t15 45.5v13q0 29 -16.5 46.5t-44.5 17.5h-21v56h21q25 0 39.5 15.5t14.5 41.5v10q0 27 -13.5 42t-37.5 15q-25 0 -38.5 -14t-13.5 -38v-10h-61v11q0 49 31 78t84 29t84 -29.5t31 -77.5v-10
q0 -30 -14 -52t-37 -34q27 -11 42 -37t15 -61v-12q0 -52 -33.5 -84.5t-87.5 -32.5q-55 0 -86 28.5z" />
    <glyph glyph-name="four.sups" horiz-adv-x="332" 
d="M301 505h-39v-75h-69v75h-157v59l117 283h68l-116 -283h88v98h69v-98h39v-59z" />
    <glyph glyph-name="glyph249" horiz-adv-x="176" 
d="M248 690h63l-373 -690h-63z" />
    </font>
</defs>
</svg>
